Ralph el Demoledor [2012][BDRip 720p.x264.mkv][Dual Español Latino-Inglés][3.8 GB][Animación] Descargar Gratis Descargar Gratis


Ralph el Demoledor [2012][BDRip 720p.x264.mkv][Dual Español Latino-Inglés][3.8 GB][Animación] Descargar Gratis Descargar Gratis descargar dvdrip, 1 link, castellano, español latino, HDRip, descarga directa, subtitulos, ver online, full HD 3D, torrent, rapidshare, mediafire

Ralph el Demoledor (2012) | BDRip 720p.x264.mkv | Dual Español Latino-Inglés | 3.8 GB | Animación |




TÍTULO ORIGINAL: Wreck-It Ralph
OTROS TÍTULOS: ¡Rompe Ralph! / Ralph el Demoledor
AÑO: 2012
DURACIÓN: 101 min.
PAÍS: USA
DIRECTOR: Rich Moore
GUIÓN: Phil Johnston
MÚSICA: Henry Jackman
FOTOGRAFÍA: Animation
REPARTO: Animation
PRODUCTORA: Walt Disney Animation Studios
PREMIOS 2012: Oscar: Nominada a Mejor película de animación
2012: 5 Premios Annie, incluyendo Mejor película. 10 nominaciones
2012: Critics Choice Awards: Mejor película de animación
2012: Globos de Oro: Nominada a Mejor película de animación
2012: Satellite Awards: Nominado a Mejor largometraje de animación
2012: National Board of Review (NBR): Mejor largometraje de animación
2012: Producers Guild of America (PGA): Mejor película de animación
GÉNERO: Animación. Fantástico. Comedia | Videojuego. 3-D
FECHA DE ESTRENO MÉXICO: 2 de noviembre de 2012
FECHA DE ESTRENO USA: 2 de noviembre de 2012
FECHA DE ESTRENO ESPAÑA: 25 de diciembre de 2012



Ralph el Demoledor anhela ser amado y respetado como suele pasar con, Felix el Reparador, el chico bueno del videojuego al que pertenece. El problema es que nadie quiere a los villanos y por eso Ralph sale de su juego y se aventura en un moderno reto que lo podría coronar como el héroe que quiere ser. Sin embargo, todo sale mal para Ralph y, aunque consigue ganar su valiosa medalla, provoca un accidente que podría terminar con todos los juegos de video. Con la ayuda de un curiosa pequeñita, Ralph tendrá que arreglar todos los problemas antes de que sea demasiado tarde.


Formato:mkv
Calidad:BDRip 720p | x264 | AC3 5.1 | DTS |
Resolucion:1280x 544
Tamaño:3.89 GB
Audio 1:Español Latino
Audio 2:Inglés
Subtítulos:Español, Inglés
Servidor: letitbit
Uploader:Camix2012


Código:
General
Complete name : Wreck-It.Ralph.2012.720p.BDRip.LATiNO.ENG.x264.AC3.DTS.mkv
Format : Matroska
File size : 3.89 GiB
Duration : 1h 41mn
Overall bit rate : 5 501 Kbps
Movie name : Ralph el Demoledor 720p BDRip LATiNO
Encoded date : UTC 2010-02-22 21:41:31
Writing application : mkvmerge v5.9.0 (‘On The Loose’) built on Dec 9 2012 15:37:01
Writing library : libebml v1.3.0 + libmatroska v1.4.0
Video
ID : 1
Format : AVC
Format/Info : Advanced Video Codec
Format profile : High [email protected]
Format settings, CABAC : Yes
Format settings, ReFrames : 3 frames
Muxing mode : Header stripping
Codec ID : V_MPEG4/ISO/AVC
Duration : 1h 41mn
Bit rate mode : Variable
Bit rate : 3 241 Kbps
Maximum bit rate : 14.0 Mbps
Width : 1 280 pixels
Height : 544 pixels
Display aspect ratio : 2.35:1
Frame rate : 23.976 fps
Color space : YUV
Chroma subsampling : 4:2:0
Bit depth : 10 bits
Scan type : Progressive
Bits/(Pixel*Frame) : 0.194
Stream size : 2.29 GiB (59%)
Writing library : x264 core 129 r2245 bc13772
Encoding settings : cabac=1 / ref=4 / deblock=1:1:1 / analyse=0×3:0×133 / me=umh / subme=9 / psy=1 / psy_rd=0.40:0.00 / mixed_ref=1 / me_range=16 / chroma_me=1 / trellis=2 / 8x8dct=1 / cqm=0 / deadzone=21,11 / fast_pskip=1 / chroma_qp_offset=-2 / threads=24 / lookahead_threads=4 / sliced_threads=0 / slices=4 / nr=0 / decimate=1 / interlaced=0 / bluray_compat=0 / constrained_intra=0 / bframes=3 / b_pyramid=1 / b_adapt=2 / b_bias=0 / direct=3 / weightb=1 / open_gop=0 / weightp=0 / keyint=23 / keyint_min=1 / scenecut=40 / intra_refresh=0 / rc_lookahead=24 / rc=crf / mbtree=1 / crf=17.0 / qcomp=0.60 / qpmin=10 / qpmax=51 / qpstep=4 / vbv_maxrate=14000 / vbv_bufsize=14500 / crf_max=0.0 / nal_hrd=vbr / ip_ratio=1.40 / aq=1:0.60
Language : English
Audio #1
ID : 2
Format : AC-3
Format/Info : Audio Coding 3
Mode extension : CM (complete main)
Muxing mode : Header stripping
Codec ID : A_AC3
Duration : 1h 41mn
Bit rate mode : Constant
Bit rate : 640 Kbps
Channel(s) : 6 channels
Channel positions : Front: L C R, Side: L R, LFE
Sampling rate : 48.0 KHz
Bit depth : 16 bits
Compression mode : Lossy
Stream size : 463 MiB (12%)
Language : Spanish
Audio #2
ID : 3
Format : DTS
Format/Info : Digital Theater Systems
Muxing mode : Header stripping
Codec ID : A_DTS
Duration : 1h 41mn
Bit rate mode : Constant
Bit rate : 1 510 Kbps
Channel(s) : 6 channels
Channel positions : Front: L C R, Side: L R, LFE
Sampling rate : 48.0 KHz
Bit depth : 24 bits
Compression mode : Lossy
Stream size : 1.07 GiB (27%)
Language : English
Text #1
ID : 4
Format : UTF-8
Codec ID : S_TEXT/UTF8
Codec ID/Info : UTF-8 Plain Text
Language : Spanish
Text #2
ID : 5
Format : UTF-8
Codec ID : S_TEXT/UTF8
Codec ID/Info : UTF-8 Plain Text
Title : Forzados
Language : Spanish
Text #3
ID : 6
Format : VobSub
Muxing mode : zlib
Codec ID : S_VOBSUB
Codec ID/Info : The same subtitle format used on DVDs
Title : SDH
Language : English
Text #4
ID : 7
Format : VobSub
Muxing mode : zlib
Codec ID : S_VOBSUB
Codec ID/Info : The same subtitle format used on DVDs
Language : English
Menu
00:00:00.000 : es:Capítulos 01
00:07:12.139 : es:Capítulos 02
00:16:34.910 : es:Capítulos 03
00:27:07.500 : es:Capítulos 04
00:37:25.951 : es:Capítulos 05
00:44:46.683 : es:Capítulos 06
00:48:45.130 : es:Capítulos 07
00:51:36.009 : es:Capítulos 08
00:58:56.032 : es:Capítulos 09
01:09:07.893 : es:Capítulos 10
01:13:39.623 : es:Capítulos 11
01:15:56.801 : es:Capítulos 12
01:18:52.977 : es:Capítulos 13
01:21:53.741 : es:Capítulos 14
01:27:25.364 : es:Capítulos 15
01:33:10.542 : es:Capítulos 16











Links protegidos


Link
http://down.moviespeliculas.biz/decode.php?h=aHR0cDovL25jcnlwdC5pbi9mb2xkZXItdE5Pd1ZnWkI=

1 Link dde 3.89 GB
Contraseña:camix

!!!ATENCION!!!

PARA DESCARGAR MAS RAPIDO SUS ARCHIVOS LES RECOMIENDO COMPRAR UNA CUENTA PREMIUM,

ASI PODRAN DESCARGAR MUCHO MAS RAPIDO Y ADEMAS PODRAN PAUSAR SUS DESCARGAS Y REANUDARLAS CUANDO GUSTEN.

PUEDEN OBTENER SUS CUENTAS PREMIUM DE VARIAS FORMA HASTA POR SMS DESDE SU CELULAR A MUY BAJO PRECIO DEPENDIENDO POR CUANTO TIEMPO LA QUIERAS,
LES DEJO AQUI LAS TABLAS DE COMO HACERLO






Ralph el Demoledor [2012][BDRip 720p.x264.mkv][Dual Español Latino-Inglés][3.8 GB][Animación] Descargar Gratis Descargar Gratis descargar dvdrip, 1 link, castellano, español latino, HDRip, descarga directa, subtitulos, ver online, full HD 3D, torrent, rapidshare, mediafire