Descargar: Reviving Ophelia [DvdRIP] [2011] [Sub.] [Drama] [WU-FS-FLS-US] Online Descargar Gratis


Descargar: Reviving Ophelia [DvdRIP] [2011] [Sub.] [Drama] [WU-FS-FLS-US] Online Descargar Gratis mediafire, letitbit, turbobit, rapidshare, freakshare

Descargar: Reviving Ophelia [DvdRIP] [2011] [Sub.] [Drama] [WU-FS-FLS-US]

Elizabeth (Rebecca Williams), una joven de 17 años, parece tener la vida perfecta, aunque la verdad es que su novio Mark (Nick Thurston) abusa de ella. Cuando lo descubre su prima Kelli (Carleigh Beverly), de tan solo 16 años, ésta decide revelarlo, pero nadie la cree, porque creen que Kelli tiene envidia.

Titulo: Reviving Ophelia
Año: 2011
Genero: Drama
Idioma: Ingles con subtitulos en español pegados al video
Formato: AVI
Calidad de imagen: Muy Buena

 

dijo:
General
Complete name : files/p-rev__Luke.avi
Format : AVI
Format/Info : Audio Video Interleave
File size : 1.05 GiB
Duration : 1h 27mn
Overall bit rate : 1 735 Kbps
Writing application : MEncoder 1.0rc2-4.2.4
Writing library : MPlayer

Video
ID : 0
Format : MPEG-4 Visual
Format profile : Simple@L1
Format settings, BVOP : No
Format settings, QPel : No
Format settings, GMC : No warppoints
Format settings, Matrix : Default (H.263)
Codec ID : XVID
Codec ID/Hint : XviD
Duration : 1h 27mn
Bit rate : 1 562 Kbps
Width : 624 pixels
Height : 352 pixels
Display aspect ratio : 16:9
Frame rate : 29.970 fps
Color space : YUV
Chroma subsampling : 4:2:0
Bit depth : 8 bits
Scan type : Progressive
Bits/(Pixel*Frame) : 0.237
Stream size : 972 MiB (90%)
Writing library : Lavc51.44.0

Audio
ID : 1
Format : MPEG Audio
Format version : Version 1
Format profile : Layer 3
Codec ID : 55
Codec ID/Hint : MP3
Duration : 1h 27mn
Bit rate mode : Constant
Bit rate : 160 Kbps
Channel(s) : 2 channels
Sampling rate : 44.1 KHz
Stream size : 99.6 MiB (9%)
Alignment : Aligned on interleaves
Interleave, duration : 26 ms (0.78 video frame)
Interleave, preload duration : 522 ms

 

Descargar: Reviving Ophelia [DvdRIP] [2011] [Sub.] [Drama] [WU-FS-FLS-US] Online Descargar Gratis mediafire, letitbit, turbobit, rapidshare, freakshare